» » Johannes Brahms - Complete Works for Violin and Piano
Topic information
  • Views: 89
  • Author: Delcan
  • Date: 2-05-2017, 00:04
2-05-2017, 00:04

Johannes Brahms - Complete Works for Violin and Piano

Category: Music

Johannes Brahms - Complete Works for Violin and Piano
Johannes Brahms - Complete Works for Violin and Piano | 3.12 GB

The presence of scans in the contents of the distribution: Booklet PDF
Container: DSF (* .dsf)
Type of rip: tracks
Resolution: 64 (2.8 MHz / 1 Bit)
Format: DSD
Number of Channels: 2.0
Tracklist:

Johannes Brahms (1833-1897)
Sonata for Piano and Violin No. 1 in G, Op. 78:
01 Vivace ma non troppo 11.06
02 Adagio 8.55
03 Allegro molto moderato 9.20
Sonata for Piano and Violin No. 2 in A, Op. 100 (1886):
04 Allegro amabile 8.26
05 Andante tranquillo - Vivace 7.03
06 Allegretto grazioso (quasi Andante) 5.42
Sonata for Piano and Violin No. 3 in D minor, Op. 108 (1886-88):
07 Allegro 8.11
08 Adagio 4.53
09 Un poco presto e con sentiment 3.04
10 Presto agitato 5.52
Scherzo from the FAE Sonata in C minor, WoO 2 (1853):
11 Allegro - Trio - Più moderato - In tempo ma marcato 5.50

[Collapse]
DR Log

Foobar2000 1.3.14 / Dynamic Range Meter 1.1.1
Log date: 2017-04-26 21:12:52
-------------------------------------------------- ------------------------------
Analyzed: Arabella Steinbacher, Robert Kulek / Brahms: Sonatas for Piano and Violin
-------------------------------------------------- ------------------------------
DR Peak RMS Duration Track
-------------------------------------------------- ------------------------------
DR14 -7.12 dB -28.33 dB 11:10 01-Sonata for Piano and Violin No.1 in G, Op. 78 - I. Vivace ma non troppo
DR15 -9.62 dB -31.41 dB 8:56 02-Sonata for Piano and Violin No.1 in G, Op. 78 - II. Adagio
DR16 -7.88 dB -30.64 dB 9:30 03-Sonata for Piano and Violin No.1 in G, Op. 78 - III. Allegro molto moderato
DR16 -7.02 dB -28.42 dB 8:29 04-Sonata for Piano and Violin No.2 in A, Op. 100 - I. Allegro amabile
DR18 -8.15 dB -33.02 dB 7:03 05-Sonata for Piano and Violin No.2 in A, Op. 100 - II. Andante tranquillo - Vivace
DR15 -9.94 dB -29.77 dB 5:50 06-Sonata for Piano and Violin No.2 in A, Op. 100 - III. Allegretto grazioso (quasi Andante)
DR15 -5.24 dB -27.71 dB 8:12 07-Sonata for Piano and Violin No. 3 in D minor, Op. 108 - I. Allegro
DR15 -12.07 dB -33.42 dB 4:54 08-Sonata for Piano and Violin No. 3 in D minor, Op. 108 - II. Adagio
DR14 -7.81 dB -29.48 dB 3:05 09-Sonata for Piano and Violin No. 3 in D minor, Op. 108 - III. Un poco presto e con sentimento
DR14 -4.98 dB -24.22 dB 5:58 10-Sonata for Piano and Violin No. 3 in D minor, Op. 108 - IV. Presto agitato
DR14 -6.74 dB -25.23 dB 5:50 11-Scherzo from the FAE Sonata in C minor, WoO 2 - Allegro - Trio - Più moderato - In tempo ma marcato
-------------------------------------------------- ------------------------------
Number of tracks: 11
Official DR value: DR15
Samplerate: 2822400 Hz / PCM Samplerate: 88200 Hz
Channels: 2
Bits per sample: 1
Bitrate: 5645 kbps
Codec: DSD64
================================================== ==============================

[Collapse]
Composition
Arabella Steinbacher, violin
Robert Kulek, piano
[Collapse]
Source (Releaser): https://pentatone.nativedsd.com/albums/ptc5186367sonatas-for-piano-and-violin

Recording format / Recording source: [DSD] [OF]
Presence of watermarks: No
Year of edition / reissue: 2011
Genre: Classical
Publisher (Label): Pentatone Classics - PTC5186367
Duration: 1:18:49


PLEASE SUPPORT ME BY CLICK ONE OF MY LINKS IF YOU WANT BUYING OR EXTENDING YOUR ACCOUNT
http://nitroflare.com/view/01C66BA2B8A298E/Brahms_-_Complete_Works_for_Violin_and_Piano_%28Arabella_Steinbacher%2C_Robert_Kulek_-2011%29%28Pentatone_Classics_-_PTC5186367%2C_2011%29%28DSD_2.0%29.part1.rar
http://nitroflare.com/view/D39860EA79F36D4/Brahms_-_Complete_Works_for_Violin_and_Piano_%28Arabella_Steinbacher%2C_Robert_Kulek_-2011%29%28Pentatone_Classics_-_PTC5186367%2C_2011%29%28DSD_2.0%29.part2.rar
http://nitroflare.com/view/B7578E382A62E95/Brahms_-_Complete_Works_for_Violin_and_Piano_%28Arabella_Steinbacher%2C_Robert_Kulek_-2011%29%28Pentatone_Classics_-_PTC5186367%2C_2011%29%28DSD_2.0%29.part3.rar
http://nitroflare.com/view/02976D867B8A0AF/Brahms_-_Complete_Works_for_Violin_and_Piano_%28Arabella_Steinbacher%2C_Robert_Kulek_-2011%29%28Pentatone_Classics_-_PTC5186367%2C_2011%29%28DSD_2.0%29.part4.rar

http://rapidgator.net/file/7322fcf1861d24a68148d1febebb94dd/Brahms_-_Complete_Works_for_Violin_and_Piano_(Arabella_Steinbacher,_Robert_Kulek_-2011)(Pentatone_Classics_-_PTC5186367,_2011)(DSD_2.0).part1.rar.html
http://rapidgator.net/file/ae665be89050818c6dfec34b3263f9be/Brahms_-_Complete_Works_for_Violin_and_Piano_(Arabella_Steinbacher,_Robert_Kulek_-2011)(Pentatone_Classics_-_PTC5186367,_2011)(DSD_2.0).part2.rar.html
http://rapidgator.net/file/0a1ee3749c372ca04ba728446326b790/Brahms_-_Complete_Works_for_Violin_and_Piano_(Arabella_Steinbacher,_Robert_Kulek_-2011)(Pentatone_Classics_-_PTC5186367,_2011)(DSD_2.0).part3.rar.html
http://rapidgator.net/file/bf49f92c4cf32247aff29dfcd2453cbb/Brahms_-_Complete_Works_for_Violin_and_Piano_(Arabella_Steinbacher,_Robert_Kulek_-2011)(Pentatone_Classics_-_PTC5186367,_2011)(DSD_2.0).part4.rar.html

http://uploadgig.com/file/download/45efcc287563b79d/Brahms - Complete Works for Violin and Piano Arabella Steinbacher Robert Kulek -2011Pentatone Classics - PTC5186367 2011DSD 2.0.part2.rar
http://uploadgig.com/file/download/C2Cb6Be0c1d191bf/Brahms - Complete Works for Violin and Piano Arabella Steinbacher Robert Kulek -2011Pentatone Classics - PTC5186367 2011DSD 2.0.part3.rar
http://uploadgig.com/file/download/4df799fc0879a571/Brahms - Complete Works for Violin and Piano Arabella Steinbacher Robert Kulek -2011Pentatone Classics - PTC5186367 2011DSD 2.0.part1.rar
http://uploadgig.com/file/download/D7bc089a1d4c000d/Brahms - Complete Works for Violin and Piano Arabella Steinbacher Robert Kulek -2011Pentatone Classics - PTC5186367 2011DSD 2.0.part4.rar

PLEASE SUPPORT ME BY CLICK ONE OF MY LINKS IF YOU WANT BUYING OR EXTENDING YOUR ACCOUNT

Tags Cloud: Johannes, Brahms, Complete, Works, for

Dear visitor, you are browsing our website as Guest.
We strongly recommend you to register and login to view hidden contents.